.
Авторизация | Регистрация

trackerok.club

» » [Фёдор Сидоров] Формула СовременногоИнвестирования, 2-й поток [2017, Инвестирование, WEBRip, RUS] (Тренинг) торрент скачать бесплатно


    [Фёдор Сидоров] Формула СовременногоИнвестирования, 2-й поток [2017, Инвестирование, WEBRip, RUS] (Тренинг) торрент скачать бесплатно

    Дата: 12-04-2018, 10:08 | .torrent скачали: 576

    [Фёдор Сидоров] Формула СовременногоИнвестирования, 2-й поток [2017, Инвестирование, WEBRip, RUS] (Тренинг)Автор: Фёдор Сидоров
    Страна: Россия
    Тематика: Инвестирование
    Тип раздаваемого материала: Тренинг
    Продолжительность: 17:16:38
    Год выпуска: 2017
    Язык: Русский
    Перевод: Не требуется
    Язык субтитров: отсутствуют
    Ссылка на видеокурс на сайте производителя:http://investorpractic.ru/offer3fsi_2getcourse/

    Описание
    Вебинар включающий запись 3-х месяцев треннинга.
    Вы узнаете как начать инвестировать, куда вложить свои средства так, чтобы свести риски к минимуму и увеличить доходы. Три месяца практических вебинаров по эффективным техникам управления личными финансами, инвестированию в акции, облигации, ETF-фонды и криптовалюты.
    Качество: WEBRip
    Формат: MP4
    Видео кодек: XviD
    Аудио кодек: AAC
    Системные требования: Любые
    Доп сведения по качеству видео
    Video
    ID : 1
    Format : AVC
    Format/Info : Advanced Video Codec
    Format profile : High@L3.1
    Format settings, CABAC : Yes
    Format settings, ReFrames : 1 frame
    Format settings, GOP : M=1, N=60
    Codec ID : avc1
    Codec ID/Info : Advanced Video Coding
    Duration : 2h 10mn
    Bit rate : 988 Kbps
    Maximum bit rate : 5 572 Kbps
    Width : 1 280 pixels
    Height : 720 pixels
    Display aspect ratio : 16:9
    Frame rate mode : Constant
    Frame rate : 30.000 fps
    Color space : YUV
    Chroma subsampling : 4:2:0
    Bit depth : 8 bits
    Scan type : Progressive
    Bits/(Pixel*Frame) : 0.036
    Stream size : 922 MiB (84%)
    Tagged date : UTC 2017-11-20 19:37:25
    Color primaries : BT.709
    Transfer characteristics : BT.709
    Matrix coefficients : BT.709
    Audio
    ID : 2
    Format : AAC
    Format/Info : Advanced Audio Codec
    Format profile : LC
    Codec ID : 40
    Duration : 2h 10mn
    Bit rate mode : Variable
    Bit rate : 192 Kbps
    Maximum bit rate : 201 Kbps
    Channel(s) : 2 channels
    Channel positions : Front: L R
    Sampling rate : 44.1 KHz
    Compression mode : Lossy
    Stream size : 179 MiB (16%)
    Title : IsoMedia File Produced by Google, 5-11-2011
    Видео: Advanced Video Coding,5572 Kbps,1280Х720,988 Kbps,30.000 fps
    Аудио: AAC,192 Kbps,44.1 KHz,2 channels

    Скриншоты для ознакомления




    [Фёдор Сидоров] Формула СовременногоИнвестирования, 2-й поток [2017, Инвестирование, WEBRip, RUS] (Тренинг)
    Рейтинг →
     (голосов: 1, оценка 5/5, голосовать можно 1 раз )

    Другие торренты по теме:

  • Физрук / Сезон: 2 / Серии: 1-9 из 20 (Фёдор Стуков, Сергей Сенцов) [2014, SATRip] (Фёдор Стуков, Сергей Сенцов) [2014, Ситком, комедия, SATRip]
  • Андрошки 1 сезон / Андрошки 1 сезон (Фёдор Черенков) [2014, Эстония, фантастика, боевик, HDRip] MVO (Фёдор Черенков) + Original Rus
  • Гибралтар / Сети шпионажа / Gibraltar (Фёдор Оцеп / Fedor (Fyodor) Ozep (Otsep)) [1938, Франция, шпионский детектив, военный, драма, DVDRip] VO (fiendover) + Sub Rus (Lisok) + Original Fre
  • Гибралтар / Сети шпионажа / Gibraltar (Фёдор Оцеп / Fedor (Fyodor) Ozep (Otsep)) [1938, Франция, шпионский детектив, военный, драма, DVDRip] VO (fiendover) + Sub Rus (Lisok) + Original Fre
  • Гибралтар / Сети шпионажа / Gibraltar (Фёдор Оцеп / Fedor (Fyodor) Ozep (Otsep)) [1938, Франция, шпионский детектив, военный, драма, DVD5 (Custom)] VO (fiendover) + Sub Rus (Lisok) + Sub Eng + Original Fre
  • Обитаемый остров: Фильм первый (Фёдор Бондарчук) [2008 г, фантастика, боевик, BDRip]
  • Первые фильмы / Выпуск 4. Разрушитель Волн (Иван Охлобыстин, Василий Пичул, Александр Шейн, Фёдор Бондарчук) [1982-1998 гг., драма, DVD9]
  • Сталинград (Фёдор Бондарчук) [2013, Россия, боевик, драма, военный, BDRip 1080p] [EUR Transfer] Original (Rus) + Dub (Eng) + Sub (Rus, Eng)


    • Комментарии (0):

      Информация

      Информация

        Посетители, находящиеся в группе Гости, не могут оставлять комментарии в данной новости.

        ↓ Меню




        ↓ Опрос

        Вы добавили сайт в закладки?
        Да
        Нет


        Популярное

        Splice Sounds - Sounds of KSHMR Vol.3 (WAV)

        (скачиваний: 1328)
        Гарри Поттер и Дары смерти. Часть 1 (Максимальная редакция) / Harry Potter and the Deathly Hallows. Part 1 (Ultimate Edition) [2010, Фэнтези, приключения,детектив, BDRip]

        (скачиваний: 350)
        Гарри Поттер и философский камень (Максимальная редакция) / Harry Potter and the Philosophers Stone (Ultimate Edition) [2001, Фэнтези, Приключения,Семейный, BDRip]

        (скачиваний: 327)
        Гарри Поттер и орден Феникса (Максимальная редакция) / Harry Potter and the Order of the Phoenix (Ultimate Edition) [2007, Фэнтези, детектив, приключения,семейный, BDRip]

        (скачиваний: 274)
        Гарри Поттер и тайная комната (Максимальная редакция) / Harry Potter and the Chamber of Secrets (Ultimate Edition) [2002, Фэнтези, Приключения,Семейный, HDRip]

        (скачиваний: 267)
        Гарри Поттер и кубок огня (Максимальная редакция) / Harry Potter and the Goblet of Fire (Ultimate Edition) [2005, Фэнтези, детектив, приключения,семейный, BDRip]

        (скачиваний: 255)
        Гарри Поттер и узник Азкабана (Максимальная редакция) / Harry Potter and the Prisoner of Azkaban (Ultimate Edition) [2004, Фэнтези, детектив, приключения,семейный, BDRip]

        (скачиваний: 239)
        [VideoSmile] Супер Cinema 4D [2018, RUS]

        (скачиваний: 159)
        4K Samsung UHD [2014, Демо,тестовое видео,Master2160p TS,HEVC,10 bits]

        (скачиваний: 129)
        [FSX] PMDG 737 8900-6700 NGX [ENG]

        (скачиваний: 84)